#TITLE:air;
#SUBTITLE:;
#ARTIST:Shiki;
#TITLETRANSLIT:;
#SUBTITLETRANSLIT:;
#ARTISTTRANSLIT:;
#CREDIT:;
#BANNER:Air_logo.jpg;
#BACKGROUND:Air_bg.jpg;
#LYRICSPATH:;
#CDTITLE:Lan.png;
#MUSIC:air.mp3;
#OFFSET:-0.040;
#SAMPLESTART:100.000;
#SAMPLELENGTH:12.000;
#SELECTABLE:YES;
#BPMS:0.000=177.980;
#STOPS:;
#BGCHANGES:;
// cache tags:
#FIRSTBEAT:16.000;
#LASTBEAT:495.500;
#SONGFILENAME:Songs/lan sky/air/air.sm;
#HASMUSIC:1;
#HASBANNER:1;
#MUSICLENGTH:167.931;
// end cache tags

//---------------dance-single - sky----------------
#NOTES:
     dance-single:
     sky:
     Challenge:
     10:
     1.000,1.000,1.000,0.006,1.000,1548.000,200.000,1.000,0.000,0.000:

0000
0000
0000
0000
,
0000
0000
0000
0000
,
0000
0000
0000
0000
,
0000
0000
0000
0000
,
0100
0000
0000
1000
0000
0000
0100
0000
0000
0001
0000
0000
0100
0000
1000
0000
,
0100
0000
0000
1000
0000
0000
0100
0000
0000
0001
0000
0000
0100
0000
1000
0000
,
0100
0000
0000
1000
0000
0000
0100
0000
0000
0001
0000
0000
0100
0000
1000
0000
,
0100
0000
0000
1000
0000
0000
0100
0000
0000
0001
0000
0000
0100
0000
1000
0000
,
0010
1000
0010
1000
0010
0100
0010
0100
0001
0100
0001
0100
0010
1000
0010
1000
,
0010
0100
0010
0100
0001
0100
0001
0100
0010
1000
0010
1000
0001
1000
0001
1000
,
0010
0100
0010
0100
0001
1000
0001
1000
0001
0100
0001
0100
0001
0100
0010
0100
,
0001
0100
0010
1000
0001
0100
0001
1000
0010
1000
0010
0100
1001
0100
0010
0100
,
1001
0100
0010
1000
0001
0000
1000
0101
0000
1000
0101
0000
0010
1000
0100
1000
,
0001
0100
0010
0100
0001
0000
1000
0101
0000
1000
0101
0000
0010
1000
0010
0100
,
0001
0010
0001
0100
0010
0000
1000
0011
0000
1000
0011
0000
0100
1000
0010
0100
,
0001
0100
0010
1000
0100
0000
1000
0011
0000
1000
0011
0000
0100
1000
0010
0100
,
0001
0100
0010
1000
0100
0000
1000
0101
0000
1000
0101
0000
0010
0100
0001
0010
,
0001
0100
0010
1000
0010
0000
1000
0101
0000
1000
0101
0000
0010
1000
0010
0100
,
0001
0100
0010
1000
0010
0000
0100
0011
0000
0100
0011
0000
0100
1000
0010
1000
,
0001
0100
0001
1000
0010
0000
0100
0011
0000
0100
0011
0000
0100
1000
0101
0010
,
1001
0100
0010
1000
0001
1000
0100
0011
1000
0100
0011
1000
0010
1000
0001
0100
,
0010
1000
0001
0100
0001
1000
0100
0011
1000
0100
0011
1000
0010
0100
0001
0010
,
0001
0100
0010
1000
0010
0100
0010
1001
0100
0010
1001
0100
0010
1000
0100
1000
,
0001
1000
0010
0100
0001
0100
0010
1001
0100
0010
1001
0100
0001
0100
0010
0100
,
0001
1000
0010
0100
0001
1000
0100
0011
1000
0100
0011
1000
0100
1000
0010
0100
,
0001
0100
0010
1000
0010
1000
0100
0011
1000
0100
0011
0100
0001
0100
0010
1000
,
0001
0100
0010
1000
0001
0100
0010
1001
0100
0010
1001
0100
0010
1000
0001
0100
,
0001
1000
0010
1000
0001
0100
0010
0001
0100
0010
0001
1000
0100
1000
0010
0100
,
1002
0000
0000
0000
0000
0000
0000
1000
,
1000
0000
0013
0000
0100
0001
0000
1000
,
1010
0000
0000
0100
0000
0000
0010
1000
,
1001
0000
0010
0000
1001
0100
0000
0000
,
1001
0000
0000
0000
1000
0010
0000
0010
,
1001
0000
0100
0000
1001
0010
0000
0000
,
1001
0000
0000
0000
1000
0001
0000
0010
,
1001
0000
0000
0000
1100
0000
0000
0000
1001
0000
0010
0100
1000
0000
0010
0100
,
1001
0010
0100
0010
1000
0010
0100
0001
0100
0001
0010
0100
0001
0100
0010
1000
,
0001
0100
0001
1000
0100
1000
0001
0100
0010
0100
0001
0100
0001
0010
0100
0010
,
1000
0010
1000
0001
0100
0001
0100
0010
1000
0100
0001
1000
0100
0010
0100
1000
,
0001
0010
1000
0010
0100
0001
1000
0010
1000
0001
0100
0010
0100
0001
0010
1000
,
0100
0010
0001
1000
0010
1000
0001
0100
0001
0100
0010
1000
0010
0100
0001
0010
,
1000
0010
0100
0001
0100
0010
1000
0010
0100
0010
0001
0010
1000
0010
1000
0001
,
0010
1000
0001
0100
0010
1000
0010
0100
0001
0100
0010
0001
0010
1000
0010
1000
,
0001
0100
1000
0100
0010
1000
0001
0010
0100
0001
0100
0001
1000
0010
1000
0001
,
0100
0010
0001
0010
1000
0100
0001
1000
0001
0100
0010
0100
0001
1000
0010
0001
,
0100
0001
0100
1000
0001
0010
0100
0001
1000
0100
0001
0100
0001
0010
1000
0010
,
0100
0001
0100
0010
1000
0001
0010
1000
0100
0001
0100
0001
0010
1000
0010
0100
,
0001
0100
0010
0100
1000
0001
0100
0010
0001
0100
0010
1000
0001
0100
0001
0010
,
1000
0100
0001
0100
1000
0010
0001
1000
0100
0001
0100
0001
1000
0010
0100
0001
,
1000
0010
0100
0010
0001
0100
0010
1000
0010
0100
0001
1000
0010
1000
0010
0001
,
0100
0001
0100
1000
0001
0010
0100
0010
1000
0100
0001
0100
0010
1000
0001
0100
,
0001
0100
0010
1000
0010
0100
0010
0001
1000
0100
0001
0100
0010
1000
0010
1000
,
0001
0100
0010
1000
0001
0100
0010
0001
1000
0100
0010
1000
0001
1000
0010
0100
,
0001
0100
0001
1000
0010
0100
0010
0001
1000
0100
0010
0100
0001
1000
0010
1000
,
0010
0100
0001
0010
0001
0100
0010
0001
0100
0010
0001
1000
0010
0100
0001
1000
,
0010
0100
0010
1000
0001
0100
0010
0001
0100
0010
0001
1000
0010
1000
0001
1000
,
0001
0100
0001
1000
0010
1000
0100
0010
1000
0100
0010
1000
0001
0100
0010
1000
,
0001
0100
0001
1000
0010
1000
0100
0010
1000
0100
0010
1000
0001
1000
0010
0100
,
0001
1000
0010
0100
0010
1000
0100
0010
0100
0010
0001
0100
0001
0100
0010
1000
,
0010
0100
0001
1000
0010
0100
0010
0001
1000
0100
0010
1000
0010
1000
0001
0100
,
0010
0100
0001
0010
0100
1000
0010
0001
1000
0010
0001
1000
0100
0010
0100
1000
,
0001
0010
0100
0010
0001
1000
0010
0001
1000
0010
0001
0100
0010
0001
0010
0100
,
0010
0100
1000
0010
0001
1000
0100
0001
1000
0100
0001
0100
0010
0001
0100
1000
,
0010
0100
1000
0100
0010
1000
0100
0001
1000
0100
0001
0100
0010
0001
0100
1000
,
0001
0010
0100
1000
0001
0100
0010
0001
1000
0100
0001
0100
0010
0100
1000
0100
,
0001
0010
1000
0100
0010
1000
0100
0001
0100
0010
0001
1000
0100
0001
0010
0100
,
0001
0010
1000
0100
0010
1000
0100
0001
0100
0010
0001
1000
0100
0010
0100
1000
,
0001
0100
0001
1000
0010
0000
0100
0001
0000
0100
0001
0000
1000
0100
0010
0100
,
1001
0000
0000
0000
0000
0000
0000
0000
0000
0000
0000
0000
0000
0000
0000
0000
0000
0000
0000
0000
0000
0000
0000
0000
0000
0000
0000
0000
0001
1000
0100
0010
,
0001
0000
0001
0100
0000
0010
1000
0000
,
0100
0000
0000
0001
0000
0000
0010
0001
,
0010
0000
0000
0000
,
0101
0000
0000
0000
,
0000
0000
0001
0000
1000
0010
0000
0010
,
0101
0000
1010
0000
,
1001
0010
0100
1000
0001
0010
0100
1000
0101
0010
0100
1001
0001
1000
0001
0100
,
1001
0000
0000
0000
0100
0000
0000
0000
1000
0000
0000
0000
0100
0000
0000
0000
1000
0000
0000
0000
0100
0000
0000
0000
1001
0000
0000
0000
0001
1000
0100
0010
,
0001
0100
1001
0110
1000
0101
1010
0100
,
1010
0100
1000
0101
1000
0100
1010
0101
,
1010
0100
1000
0100
1000
0100
1000
0100
,
1001
0100
1000
0100
1000
0100
1000
0100
,
1000
0100
1001
0100
1010
0101
1000
0100
,
1010
0100
1000
0100
1001
0100
1000
0100
,
1001
0010
0100
0010
1001
0010
0100
1000
0101
0010
0100
1000
0011
0100
1000
0001
,
1010
0000
0000
0000
0100
0000
0000
0000
1000
0000
0000
0000
0100
0000
0000
0000
1000
0000
0000
0000
0100
0000
0000
0000
1001
0000
0000
0000
0001
1000
0100
0010
,
0001
0100
1001
0101
1000
0101
1010
0100
,
1001
0100
1000
0101
1000
0100
1010
0101
,
1010
0100
1000
0100
1000
0100
1000
0100
,
1001
0100
1000
0100
1000
0100
1000
0100
,
1000
0100
1001
0100
1010
0101
1000
0100
,
1001
0100
1000
0100
1001
0100
1000
0100
,
0001
0010
0100
1000
0001
0010
0100
1000
0010
0100
1000
0100
0001
0010
0100
0010
,
1001
0010
0100
0010
1001
0010
0100
0010
1001
0100
1001
0010
1001
0100
1001
0010
,
1001
0010
0100
0010
1001
0010
0100
0010
1001
0100
1001
0010
1001
0100
1001
0010
,
1001
0010
0100
0010
1001
0010
0100
0010
1001
0100
1001
0010
1001
0100
1001
0010
,
1001
0010
0100
0010
1001
0010
0100
0010
1001
0100
1001
0010
1001
0100
1001
0010
,
1001
0100
0010
0100
1001
0100
0010
0100
1001
0010
1001
0100
1001
0010
1001
0100
,
1001
0100
0010
0100
1001
0100
0010
0100
1001
0010
1001
0100
1001
0010
1001
0100
,
1001
0100
0010
0100
1001
0100
0010
0100
1001
0010
1001
0100
1001
0010
1001
0100
,
1001
0100
0010
0100
1001
0010
0100
0010
1001
0100
0010
0001
1010
0100
0010
0100
,
1001
0010
0100
0010
1001
0100
0010
0100
1001
0010
1001
0100
1001
0010
1001
0100
,
1001
0010
0100
0010
1001
0100
0010
0100
1001
0010
1001
0100
1001
0010
1001
0100
,
1001
0010
0100
0010
1001
0100
0010
0100
1001
0010
1001
0100
1001
0010
1001
0100
,
1001
0010
0100
0010
1001
0100
0010
0100
1001
0010
1001
0100
1001
0010
1001
0100
,
1001
0100
0010
0100
1001
0010
0100
0010
1001
0100
1001
0010
1001
0100
1001
0010
,
1001
0100
0010
0100
1001
0010
0100
0010
1001
0100
1001
0010
1001
0100
1001
0010
,
1001
0100
0010
0100
1001
0010
0100
0010
1001
0100
1001
0010
1001
0100
1001
0010
,
1001
0100
0010
0100
1001
0010
0100
0010
1001
0100
0001
0010
1100
0001
0010
0100
,
1001
0100
0010
1000
0001
0100
0010
1001
0100
0010
1001
0100
0010
1000
0001
0100
,
0010
1000
0001
0100
0001
0100
0010
1001
0100
0010
1001
0100
0010
0100
0001
0010
,
0001
0100
0010
1000
0010
0100
0010
1001
0100
0010
1001
0100
0010
1000
0100
1000
,
0001
1000
0010
0100
0001
0100
0010
1001
0100
0010
1001
0100
0001
0100
0010
0100
,
0001
1000
0010
0100
0001
1000
0100
0011
1000
0100
0011
1000
0100
1000
0010
0100
,
0001
0100
0010
1000
0010
1000
0100
0011
1000
0100
0011
0100
0001
0100
0010
1000
,
0001
0100
0010
1000
0001
1000
0100
0011
1000
0100
0011
0100
0010
1000
0001
0100
,
0001
1000
0010
0100
0001
1000
0100
0011
1000
0100
0011
1000
0100
1000
0010
0100
,
0001
1000
0001
0100
0010
1000
0010
0001
1000
0010
0001
1000
0010
0100
0010
1000
,
0001
0100
0010
1000
0001
1000
0010
0001
1000
0010
0001
0100
0010
1000
0001
0100
,
0010
0100
0001
0100
0001
1000
0100
0001
1000
0100
0001
0100
0010
1000
0001
1000
,
0010
0100
0001
1000
0010
1000
0100
0001
1000
0100
0001
0100
0010
1000
0001
0100
,
0001
0100
0010
1000
0001
1000
0100
0001
1000
0100
0001
0000
0010
1000
0100
1000
,
0001
0100
0010
0100
0001
1000
0100
0001
1000
0100
0001
0000
0010
1000
0010
0100
,
0001
0010
0001
0100
0010
0000
1000
0001
0000
1000
0001
0000
0100
0000
0010
0000
,
1000
0000
0010
0000
0100
0000
0000
0001
0000
0000
0001
0000
0010
0000
1000
0000
;
